Abysse SataKore SegaKore Dream-Storming Guardiana SEGA GALAXY BOARD Index du Forum
 FAQFAQ   RechercherRechercher   Liste des MembresListe des Membres   Groupes d'utilisateursGroupes d'utilisateurs   DiscordChat sur Discord   S'enregistrerS'enregistrer 
 ProfilProfil   Se connecter pour vérifier ses messages privésSe connecter pour vérifier ses messages privés   ConnexionConnexion 

Probleme lecture d'ISOs

 
Poster un nouveau sujet   Répondre au sujet    SEGA GALAXY BOARD Index du Forum -> Emulation et utilitaires SEGA
Voir le sujet précédent :: Voir le sujet suivant  
Auteur Message
vince
Invité





MessagePosté le: Dim Jan 26, 2003 11:51 am    Sujet du message: Probleme lecture d'ISOs Répondre en citant

j'ai un petit problème en ce qui concerne la lecture des isos mega cd , j'en ai gravé un avec le mixed data/audio de Nero burning tool ( easy cd pro ne fonctionne pas sur mon pc ) et quand je veut lancer le cd ( commande "boot cd" de gens ) gens me renvoie au lecteur cd audio de la console , en clair je ne peut que lire les musiques de l'iso , il refuse de lancer le jeu , ( j ai bien suivi les consignes du site à la lettre ),
quelqu un a t il deja eu ce probleme ? est ce un souci de CD R , de programme (nero )

merci d'avance.
Revenir en haut
iGREKKESS
Webmaster


Inscrit le: 04 Jan 2003
Messages: 7794
Localisation: Etampes

MessagePosté le: Dim Jan 26, 2003 3:33 pm    Sujet du message: Répondre en citant

Sous Nero je ne vois pas vraiment bien comment tu as pu t'y prendre car il n'y a pas du tout d'option de base comme sous Easy CD Pro pour faire une gravure de CD-mixte à partir d'une ISO !

Je suppose que tu dois être sous Windows XP pour qu'Easy CD Pro ne veuille pas fonctionner... De plus si tu as un graveur récent il n'est pas sûr qu'il l'aurait détecté (Easy CD Creator 5 ne détecte pas mon Philips 48X) !

Je connais un moyen pour graver avec Nero les ISO+MP3 Mega-CD (faudrait que je l'ajoute à mon tutorial), que je viens de tester à l'instant (je suis sous XP aussi et je n'ai pas regravé d'ISO depuis) et ça semble marcher nickel !
Pour ce faire, il faut utiliser Sega Cue Maker, qui réalise un fichier .cue (utilisé par CDRWin habituellement) permettant à Nero (qui reconnait ce format) de pouvoir graver l'ISO + les musiques du jeu.
Ce qui donne par exemple pour Ecco 2 :

Citation:
FILE "Ecco The Dolphin 2 - The Tides of Time.iso" BINARY
TRACK 01 MODE1/2048
INDEX 01 00:00:00
POSTGAP 00:02:00
FILE "001_Ecco The Dolphin 2 - The Tides of Time 02.wav" WAVE
TRACK 02 AUDIO
PREGAP 00:02:00
INDEX 01 00:00:00
FILE "002_Ecco The Dolphin 2 - The Tides of Time 03.wav" WAVE
TRACK 03 AUDIO
INDEX 01 00:00:00
FILE "003_Ecco The Dolphin 2 - The Tides of Time 04.wav" WAVE
TRACK 04 AUDIO
INDEX 01 00:00:00
FILE "004_Ecco The Dolphin 2 - The Tides of Time 05.wav" WAVE
TRACK 05 AUDIO
INDEX 01 00:00:00
FILE "005_Ecco The Dolphin 2 - The Tides of Time 06.wav" WAVE
TRACK 06 AUDIO
INDEX 01 00:00:00
FILE "006_Ecco The Dolphin 2 - The Tides of Time 07.wav" WAVE
TRACK 07 AUDIO
INDEX 01 00:00:00
FILE "007_Ecco The Dolphin 2 - The Tides of Time 08.wav" WAVE
TRACK 08 AUDIO
INDEX 01 00:00:00
FILE "008_Ecco The Dolphin 2 - The Tides of Time 09.wav" WAVE
TRACK 09 AUDIO
INDEX 01 00:00:00
FILE "009_Ecco The Dolphin 2 - The Tides of Time 10.wav" WAVE
TRACK 10 AUDIO
INDEX 01 00:00:00
FILE "010_Ecco The Dolphin 2 - The Tides of Time 11.wav" WAVE
TRACK 11 AUDIO
INDEX 01 00:00:00
FILE "011_Ecco The Dolphin 2 - The Tides of Time 12.wav" WAVE
TRACK 12 AUDIO
INDEX 01 00:00:00
FILE "012_Ecco The Dolphin 2 - The Tides of Time 13.wav" WAVE
TRACK 13 AUDIO
INDEX 01 00:00:00
FILE "013_Ecco The Dolphin 2 - The Tides of Time 14.wav" WAVE
TRACK 14 AUDIO
INDEX 01 00:00:00
FILE "014_Ecco The Dolphin 2 - The Tides of Time 15.wav" WAVE
TRACK 15 AUDIO
INDEX 01 00:00:00
FILE "015_Ecco The Dolphin 2 - The Tides of Time 16.wav" WAVE
TRACK 16 AUDIO
INDEX 01 00:00:00
FILE "016_Ecco The Dolphin 2 - The Tides of Time 17.wav" WAVE
TRACK 17 AUDIO
INDEX 01 00:00:00


Il est possible aussi de le faire manuellement à partir de ça Clin d'oeil
Une fois ton fichier .cue fait, tes musiques converties en WAV (je ne pense pas que Nero prendrait en compte le format MP3 dans ce cas), il ne reste qu'à "graver une image" et ouvrir le fichier .cue !

Conseil : ne pas graver à plus de 4X !
_________________
Die Hard SEGA Fan ~1951-2001~, yippee-ki-yay ! - iGREKKESS' Blog (グレッケッス★アドベンチャー)
Revenir en haut
Voir le profil de l'utilisateur Envoyer un message privé Visiter le site web du posteur Compte Twitter
vince
Invité





MessagePosté le: Mar Jan 28, 2003 5:14 pm    Sujet du message: Répondre en citant

ca y est , ca marche parfaitement , merci beaucoup
Revenir en haut
Montrer les messages depuis:   
Poster un nouveau sujet   Répondre au sujet    SEGA GALAXY BOARD Index du Forum -> Emulation et utilitaires SEGA Toutes les heures sont au format GMT + 1 Heure
Page 1 sur 1

 
Sauter vers:  
Vous ne pouvez pas poster de nouveaux sujets dans ce forum
Vous ne pouvez pas répondre aux sujets dans ce forum
Vous ne pouvez pas éditer vos messages dans ce forum
Vous ne pouvez pas supprimer vos messages dans ce forum
Vous ne pouvez pas voter dans les sondages de ce forum



Space Pilot 3K template by Jakob Persson.
Powered by phpBB © 2001 phpBB Group
Traduction par : phpBB-fr.com